Filmozercy.com | Forum
Polskie filmy, które warto kupić - Wersja do druku

+- Filmozercy.com | Forum (https://forum.filmozercy.com)
+-- Dział: O filmach i serialach (https://forum.filmozercy.com/dzial-o-filmach-i-serialach)
+--- Dział: Filmy (https://forum.filmozercy.com/dzial-filmy--13)
+--- Wątek: Polskie filmy, które warto kupić (/watek-polskie-filmy-ktore-warto-kupic)

Strony: 1 2 3 4 5 6 7 8 9 10 11 12 13 14 15 16 17 18


RE: Polskie filmy, które warto kupić - Daras - 07-11-2019

(07-11-2019, 09:03)prodarek napisał(a):  Okej dziękuję najpierw zobaczę wersję DVD właśnie kupiłem

Dziwne. Pyłem pewny, że wkleiłem tu odpowiedź ale ją wcięło (?). Zatem jeszcze raz.

To fajowo. Napisz za jakiś czas kilka słów o swoich spostrzeżeniach. Interesują mnie uwagi techniczne (pamiętaj, że to tylko DVD!) oraz odbiór fabuły polskiego filmu z roku 1961. Wink

Jeśli przypasuje Ci jakość, to polecę jeszcze jakiś tytuł z tej serii. Cool


RE: Polskie filmy, które warto kupić - prodarek - 07-11-2019

Właśnie aktywowałem netflix i .... masa po prostu masa polskich filmów wcześniej tego nie było jestem w szoku.


RE: Polskie filmy, które warto kupić - prodarek - 08-11-2019

Daję radę ten film na DVD całkiem przyzwoita jakość czarno-biały ukrywa niedoskonałości Tongue

A co do wydania DVD "Mistrzowie Polskiego Kina" jeśli chodzi o wygląd... nie ma co dziwić się że wydania DVD cieszą się tak dużą popularnością skoro za "kilka" złotówek dostajemy taki produkt... a filmy blu ray w gówniany pudełku elite za ~50-80zł.

Kod:
Format                                   : Matroska
Format version                           : Version 2
File size                                : 6.75 GiB
Duration                                 : 1 h 45 min
Overall bit rate mode                    : Constant
Overall bit rate                         : 9 164 kb/s
Encoded date                             : UTC 2019-05-01 11:21:23
Writing application                      : MakeMKV v1.14.5 linux(x64-release)
Writing library                          : libmakemkv v1.14.5 (1.3.5/1.4.7) x86_64-pc-linux-gnu

Video
ID                                       : 1
ID in the original source medium         : 224 (0xE0)
Format                                   : MPEG Video
Format version                           : Version 2
Format profile                           : Main@Main
Format settings                          : CustomMatrix / BVOP
Format settings, BVOP                    : Yes
Format settings, Matrix                  : Custom
Format settings, GOP                     : M=3, N=12
Codec ID                                 : V_MPEG2
Codec ID/Info                            : MPEG 1 or 2 Video
Duration                                 : 1 h 45 min
Bit rate mode                            : Constant
Bit rate                                 : 9 000 kb/s
Width                                    : 720 pixels
Height                                   : 576 pixels
Display aspect ratio                     : 4:3
Frame rate mode                          : Constant
Frame rate                               : 25.000 FPS
Standard                                 : PAL
Color space                              : YUV
Chroma subsampling                       : 4:2:0
Bit depth                                : 8 bits
Scan type                                : Progressive
Compression mode                         : Lossy
Bits/(Pixel*Frame)                       : 0.868
Time code of first frame                 : 01:00:03:09
Time code source                         : Group of pictures header
GOP, Open/Closed                         : Closed
Stream size                              : 6.61 GiB (98%)
Language                                 : English
Default                                  : No
Forced                                   : No
Color primaries                          : BT.601 PAL
Transfer characteristics                 : BT.470 System B/G
Matrix coefficients                      : BT.601
Original source medium                   : DVD-Video

Audio
ID                                       : 2
ID in the original source medium         : 189 (0xBD)128 (0x80)
Format                                   : AC-3
Format/Info                              : Audio Coding 3
Commercial name                          : Dolby Digital
Codec ID                                 : A_AC3
Duration                                 : 1 h 45 min
Bit rate mode                            : Constant
Bit rate                                 : 192 kb/s
Channel(s)                               : 2 channels
Channel layout                           : L R
Sampling rate                            : 48.0 kHz
Frame rate                               : 31.250 FPS (1536 SPF)
Compression mode                         : Lossy
Stream size                              : 145 MiB (2%)
Title                                    : Stereo
Language                                 : Polish
Service kind                             : Complete Main
Default                                  : Yes
Forced                                   : No
Original source medium                   : DVD-Video



RE: Polskie filmy, które warto kupić - Wolfman - 08-11-2019

Zawsze możesz poszperać i kupić
https://www.olx.pl/oferta/martin-scorsese-presents-masterpieces-of-polish-cinema-CID751-IDzQwoi.html#0a5c590f45
Za 300 złotych jak ja. Wychodzi mniej jak 40 złotych za film w digipacku z książeczką.


RE: Polskie filmy, które warto kupić - prodarek - 08-11-2019

Tak widziałem dostępne oferty kiedyś badałem ten temat, najgorzej chyba będzie czerwony kupić.


RE: Polskie filmy, które warto kupić - Wolfman - 08-11-2019

Czerwony mam też od tego sprzedawcy, możesz spytać


RE: Polskie filmy, które warto kupić - djvaso - 25-11-2019

Jak można się skontaktować z Ninateka?
Otrzymałem powtórki, że nie można dostarczyć moich e-maili.

Cytat:Hi. This is the qmail-send program at mx19.t-com.me.
I'm afraid I wasn't able to deliver your message to the following addresses.
This is a permanent error; I've given up. Sorry it didn't work out.

<kontakt@nina.gov.pl>:
217.79.148.70 does not like recipient.
Remote host said: 550 5.1.1 <kontakt@nina.gov.pl>... User unknown
Giving up on 217.79.148.70.

Cytat:Delivery has failed to these recipients or groups:
sklepdg@nina.gov.pl
Your message can't be delivered because delivery to this address is restricted.

Chcę wiedzieć, kiedy będzie dostępna angielska wersja sklepu.


RE: Polskie filmy, które warto kupić - Kirek - 25-11-2019

Może spróbuj na adres: pomoc@ninateka.pl lub przez ich profil na facebooku: https://www.facebook.com/Ninatekapl/
EDIT: Jest też 'Formularz kontaktowy' na stronie: http://www.nina.gov.pl/kontakt/


RE: Polskie filmy, które warto kupić - Daras - 25-11-2019

(08-11-2019, 14:50)prodarek napisał(a):  Daję radę ten film na DVD całkiem przyzwoita jakość czarno-biały ukrywa niedoskonałości Tongue

No więc właśnie. Cool Na tej samej zasadzie nie budzą zastrzeżeń „Niewinni czarodzieje” (1960) Andrzeja Wajdy. Obrazowi towarzyszą dźwięki muzyki Krzysztofa Komedy, a i jego wraz z plejadą gwiazd można ujrzeć na ekranie! Z czystym sumieniem polecam film miłośnikom polskiej klasyki.
https://www.youtube.com/watch?v=zmK0Wx1r5Ko

EDIT:
Tak jak już pisałem rzeczone wydania DVD wyróżnia wysoki bit rate. No i warto pamiętać, że w każdym przypadku dźwięk zapisano w mono (nie stereo, jak wynika z zamieszczonej specyfikacji).
W książeczkach można znaleźć sporo smaczków.


RE: Polskie filmy, które warto kupić - Pai-Chi-Wo - 20-12-2019

(29-09-2019, 20:20)Pai-Chi-Wo napisał(a):  Kupowac czy zapomniec ?
http://kinoswiat.pl/film/kurier/

(29-09-2019, 21:01)MarianPaz napisał(a):  Lepiej poczekaj na powtórkę filmu w TVP.

Kurde, podoba mi sie, włączyłem początek i zainteresował mnie. Poprzesuwałem parę przebitek i... jadę z nim. Big Grin